<?xml version="1.0" standalone="no"?>
<!DOCTYPE svg PUBLIC "-//W3C//DTD SVG 1.1//EN" "http://www.w3.org/Graphics/SVG/1.1/DTD/svg11.dtd" >
<svg xmlns="http://www.w3.org/2000/svg">
<metadata>Generated by IcoMoon</metadata>
<defs>
<font id="icomoon" horiz-adv-x="1024">
<font-face units-per-em="1024" ascent="960" descent="-64" />
<missing-glyph horiz-adv-x="1024" />
<glyph unicode="&#x20;" horiz-adv-x="512" d="" />
<glyph unicode="&#xe900;" glyph-name="cart" horiz-adv-x="965" d="M965.425-56.889h-965.425l93.861 752.298h764.295zM106.564 36.972h750.886l-81.158 564.576h-599.156zM759.355 691.88h-93.861c0 99.973-81.044 181.017-181.017 181.017s-181.017-81.044-181.017-181.017h-91.744c-0.225 4.161-0.353 9.032-0.353 13.932 0 152.006 123.225 275.231 275.231 275.231s275.231-123.225 275.231-275.231c0-4.901-0.128-9.771-0.381-14.609l0.028 0.677z" />
<glyph unicode="&#xe901;" glyph-name="snapchat-ghost" horiz-adv-x="951" d="M484.571 877.714c102.857 1.143 188-56.571 230.857-149.143 13.143-28 15.429-71.429 15.429-102.286 0-36.571-2.857-72.571-5.143-109.143 4.571-2.286 10.857-4 16-4 20.571 0 37.714 15.429 58.286 15.429 19.429 0 47.429-13.714 47.429-36.571 0-54.857-114.857-44.571-114.857-92.571 0-8.571 3.429-16.571 6.857-24.571 27.429-60 79.429-117.714 141.143-143.429 14.857-6.286 29.714-9.714 45.714-13.143 10.286-2.286 16-9.714 16-20 0-38.857-98.857-54.857-125.143-58.857-11.429-17.714-2.857-59.429-33.143-59.429-23.429 0-46.857 7.429-72 7.429-12 0-24-0.571-35.429-2.857-68-11.429-90.857-84.571-202.286-84.571-107.429 0-133.143 73.143-199.429 84.571-12 2.286-24 2.857-36 2.857-25.714 0-50.286-8.571-70.857-8.571-32 0-22.286 42.286-34.286 60.571-26.286 4-125.143 20-125.143 58.857 0 10.286 5.714 17.714 16 20 16 3.429 30.857 6.857 45.714 13.143 61.143 25.143 114.286 83.429 141.143 143.429 3.429 8 6.857 16 6.857 24.571 0 48-115.429 38.857-115.429 92 0 22.286 26.286 36.571 46.286 36.571 17.714 0 35.429-14.857 57.714-14.857 6.286 0 12.571 1.143 18.286 4-2.286 36-5.143 72-5.143 108.571 0 30.857 2.286 74.857 15.429 102.857 50.286 108.571 135.429 148 249.143 149.143z" />
<glyph unicode="&#xe902;" glyph-name="chat" d="M939.066 886.259c11.963 0 22.729-2.393 32.299-5.981 9.57-4.785 19.14-10.766 27.514-19.14 7.178-8.374 11.963-17.944 17.944-27.514 4.785-9.57 7.178-20.336 7.178-32.299v-555.065c0-11.963-2.393-22.729-7.178-33.495s-10.766-19.14-17.944-26.318c-8.374-8.374-17.944-14.355-27.514-19.14s-20.336-5.981-32.299-5.981h-87.327v-169.869l-167.477 169.869h-599.327c-11.963 0-22.729 2.393-32.299 5.981s-19.14 10.766-27.514 19.14c-7.178 7.178-11.963 15.551-17.944 26.318-4.785 10.766-7.178 21.533-7.178 33.495v555.065c0 11.963 2.393 22.729 7.178 32.299s10.766 19.14 17.944 27.514c8.374 8.374 17.944 14.355 27.514 19.14 9.57 3.589 20.336 5.981 32.299 5.981h854.131zM982.132 246.259v555.065c0 11.963-4.785 21.533-11.963 29.907-8.374 8.374-17.944 11.963-29.907 11.963h-855.327c-11.963 0-21.533-4.785-29.907-11.963-8.374-8.374-11.963-17.944-11.963-29.907v-555.065c0-11.963 3.589-21.533 11.963-29.907s17.944-11.963 29.907-11.963h617.271l107.664-110.056v110.056h130.393c11.963 0 21.533 3.589 29.907 11.963 7.178 8.374 11.963 17.944 11.963 29.907zM344.524 566.857c11.963 0 21.533-4.785 29.907-11.963 8.374-8.374 11.963-17.944 11.963-29.907s-4.785-21.533-11.963-29.907c-8.374-8.374-17.944-11.963-29.907-11.963s-21.533 3.589-29.907 11.963c-8.374 8.374-11.963 17.944-11.963 29.907s3.589 21.533 11.963 29.907c8.374 7.178 17.944 11.963 29.907 11.963zM512.001 566.857c11.963 0 21.533-4.785 29.907-11.963 8.374-8.374 11.963-17.944 11.963-29.907s-4.785-21.533-11.963-29.907c-8.374-8.374-17.944-11.963-29.907-11.963s-21.533 3.589-29.907 11.963c-8.374 8.374-11.963 17.944-11.963 29.907s3.589 21.533 11.963 29.907c8.374 7.178 17.944 11.963 29.907 11.963zM681.87 566.857c11.963 0 21.533-4.785 29.907-11.963 8.374-8.374 11.963-17.944 11.963-29.907s-4.785-21.533-11.963-29.907c-8.374-8.374-17.944-11.963-29.907-11.963s-21.533 3.589-29.907 11.963c-8.374 8.374-11.963 17.944-11.963 29.907s3.589 21.533 11.963 29.907c8.374 7.178 17.944 11.963 29.907 11.963z" />
<glyph unicode="&#xe903;" glyph-name="cheveron-thin-left, arrow-lt" d="M731.685-73.143l-513.771 513.771 508.454 510.229 38.976-38.976-471.253-471.253 474.795-474.795z" />
<glyph unicode="&#xe904;" glyph-name="chevron-thin-down" d="M512.887 108.763l-512.887 514.662 37.269 37.269 475.619-475.619 472.069 472.069 39.043-39.043z" />
<glyph unicode="&#xe905;" glyph-name="chevron-thin-up" d="M38.976 128.822l-38.976 37.204 513.772 513.772 510.228-508.457-38.976-38.976-471.253 471.253z" />
<glyph unicode="&#xe906;" glyph-name="chevron-thin-right, arrow-rt" d="M283.46-73.144l-37.204 38.976 474.796 474.796-471.253 471.253 38.976 38.976 508.457-510.228z" />
<glyph unicode="&#xe908;" glyph-name="key" d="M808.625 696.452l28.62-28.62-114.485-113.185-28.62 28.62 114.485 113.185zM934.82 395.927c110.585 109.28 111.885 288.815 2.6 399.4s-288.815 111.885-399.4 2.6c-85.865-84.565-105.38-209.46-59.845-313.535l-388.995-382.49 141.805-144.41 100.175 98.875h87.165v87.165l57.245 55.94 143.11-1.3 1.3 141.805c102.775-46.835 228.97-28.62 314.835 55.94zM636.895 376.412l-27.32 11.71-29.925-29.925-1.3-119.69-119.69 1.3-80.66-79.36v-62.445h-62.445l-83.265-81.96-84.565 85.865 377.285 373.38-11.71 26.020c-40.33 92.37-19.515 197.75 52.040 269.305 94.97 93.67 248.485 92.37 342.155-2.6s92.37-248.485-2.6-342.155c-70.255-71.555-176.935-91.070-268-49.435v0z" />
<glyph unicode="&#xe909;" glyph-name="marker" d="M505.799 922.505c44.438 0 85.774-8.266 125.045-25.835s74.406-40.305 104.377-69.239c28.937-28.937 51.673-63.041 69.239-102.309s25.835-81.641 25.835-127.113c0-13.436-1.034-27.903-3.099-42.37s-5.167-28.937-8.266-42.37c-4.133-12.402-8.266-25.835-14.467-39.271-5.167-13.436-11.368-25.835-17.569-37.203l-280.061-485.714-280.061 485.714c-6.201 11.368-12.402 23.77-17.569 37.203s-10.334 25.835-14.467 39.271c-4.133 13.436-6.201 27.903-8.266 42.37s-3.099 28.937-3.099 42.37c0 45.472 8.266 87.842 25.835 127.113s40.305 73.375 69.239 102.309c29.971 28.937 65.106 51.673 104.377 69.239 37.203 17.569 79.573 25.835 122.98 25.835zM505.799 890.469c-40.305 0-78.542-7.235-113.677-22.736s-66.14-36.169-93.009-62.007c-24.801-26.869-45.472-57.871-62.007-93.009-15.501-35.138-23.77-73.375-23.77-113.677 0-12.402 1.034-24.801 3.099-38.237 2.068-12.402 5.167-24.801 8.266-36.169 2.068-12.402 6.201-24.801 11.368-37.203s10.334-22.736 17.569-33.070l252.158-438.176 252.158 438.176c6.201 10.334 12.402 20.668 17.569 33.070s9.3 24.801 11.368 37.203c4.133 11.368 6.201 23.77 8.266 36.169s3.099 24.801 3.099 38.237c0 40.305-8.266 78.542-23.77 113.677s-36.169 66.14-62.007 93.009c-26.869 26.869-57.871 47.537-93.009 63.041-35.138 14.467-72.341 21.702-113.677 21.702zM505.799 486.394c-15.501 0-29.971 3.099-43.404 8.266s-25.835 13.436-36.169 23.77c-10.334 10.334-18.603 21.702-24.801 36.169-6.201 13.436-9.3 28.937-9.3 43.404 0 16.535 3.099 31.002 9.3 44.438s14.467 24.801 24.801 35.138c10.334 11.368 21.702 19.634 36.169 25.835 13.436 5.167 28.937 8.266 43.404 8.266 15.501 0 29.971-3.099 43.404-8.266s25.835-14.467 36.169-25.835c10.334-10.334 18.603-21.702 24.801-35.138s9.3-27.903 9.3-44.438c0-15.501-3.099-29.971-9.3-43.404s-14.467-25.835-24.801-36.169c-10.334-10.334-21.702-17.569-36.169-23.77-13.436-5.167-27.903-8.266-43.404-8.266zM505.799 519.464c11.368 0 21.702 2.068 31.002 5.167s17.569 9.3 25.835 17.569c7.235 7.235 13.436 16.535 17.569 25.835s6.201 19.634 6.201 31.002-2.068 21.702-6.201 32.036c-4.133 10.334-10.334 18.603-17.569 24.801-7.235 7.235-16.535 13.436-25.835 17.569s-19.634 6.201-31.002 6.201-21.702-2.068-31.002-6.201c-9.3-4.133-17.569-10.334-25.835-17.569-7.235-6.201-13.436-14.467-17.569-24.801s-6.201-20.668-6.201-32.036 2.068-21.702 6.201-31.002c4.133-9.3 10.334-17.569 17.569-25.835 7.235-7.235 16.535-13.436 25.835-17.569s19.634-5.167 31.002-5.167z" />
<glyph unicode="&#xe90a;" glyph-name="more" d="M211.198 512.457c10.4 0 20.8-1.6 30.4-5.6s16.8-9.6 22.4-16c7.2-7.2 12-14.4 16-23.2s5.6-18.4 5.6-29.6c0-10.4-1.6-20.8-5.6-29.6s-9.6-16.8-16-23.2c-5.6-7.2-13.6-12-22.4-16-9.6-4-19.2-5.6-30.4-5.6-9.6 0-19.2 1.6-28.8 5.6s-17.6 9.6-24 16c-7.2 7.2-12 14.4-16 23.2s-5.6 18.4-5.6 29.6c0 10.4 1.6 20.8 5.6 29.6s9.6 16.8 16 23.2c7.2 7.2 15.2 12 24 16 9.6 4 19.2 5.6 28.8 5.6zM512 512.457c10.4 0 20.8-1.6 29.6-5.6s16.8-9.6 23.2-16c7.2-7.2 12-14.4 16-23.2s5.6-18.4 5.6-29.6c0-10.4-1.6-20.8-5.6-29.6s-9.6-16.8-16-23.2c-7.2-7.2-14.4-12-23.2-16s-18.4-5.6-29.6-5.6c-10.4 0-20.8 1.6-29.6 5.6s-16.8 9.6-23.2 16c-7.2 7.2-12 14.4-16 23.2s-5.6 18.4-5.6 29.6c0 10.4 1.6 20.8 5.6 29.6s9.6 16.8 16 23.2c7.2 7.2 14.4 12 23.2 16s18.4 5.6 29.6 5.6zM812.802 512.457c9.6 0 19.2-1.6 28.8-5.6s17.6-9.6 24-16c7.2-7.2 12-14.4 16-23.2s5.6-18.4 5.6-29.6c0-10.4-1.6-20.8-5.6-29.6s-9.6-16.8-16-23.2c-7.2-7.2-15.2-12-24-16-9.6-4-19.2-5.6-28.8-5.6-10.4 0-20.8 1.6-30.4 5.6s-16.8 9.6-22.4 16c-7.2 7.2-12 14.4-16 23.2s-5.6 18.4-5.6 29.6c0 10.4 1.6 20.8 5.6 29.6s9.6 16.8 16 23.2c5.6 7.2 13.6 12 22.4 16 9.6 4 19.2 5.6 30.4 5.6z" />
<glyph unicode="&#xe90b;" glyph-name="phone" d="M690.931-17.468c-30.703 12.705-65.644 30.703-102.701 55.055s-76.23 56.113-117.522 94.231c-41.292 38.115-80.465 83.642-117.522 134.462-35.999 48.704-67.76 94.231-95.289 135.52s-48.704 80.465-65.644 116.464c-17.998 34.938-31.764 67.76-41.292 97.405s-13.763 56.113-13.763 79.407c0 17.998 3.177 33.88 8.47 48.704 6.354 13.763 12.705 26.468 20.117 37.057 9.528 9.528 17.998 16.94 27.529 24.352s16.94 13.763 23.294 17.998l6.354 4.235c15.882 11.647 32.822 19.059 52.939 23.294s34.938 6.354 43.408 6.354c15.882 0 27.529-3.177 34.938-10.589s13.763-14.824 17.998-24.352c4.235-6.354 15.882-31.764 35.999-75.172s31.764-68.818 33.88-76.23c2.119-5.293 4.235-11.647 5.293-17.998 1.058-7.412 0-13.763-1.058-20.117-2.119-7.412-5.293-14.824-9.528-21.175s-9.528-12.705-15.882-17.998l-4.235-2.119c-7.412-5.293-16.94-11.647-26.468-20.117s-14.824-17.998-16.94-28.587c-1.058-5.293-1.058-10.589 1.058-16.94s5.293-11.647 8.47-16.94c11.647-15.882 27.529-37.057 48.704-63.525s42.35-52.939 64.583-80.465c22.233-27.529 42.35-51.878 61.409-74.114s31.764-35.999 38.115-41.292c5.293-5.293 10.589-9.528 15.882-11.647s10.589-4.235 15.882-4.235c6.354-1.058 12.705-1.058 17.998 0s9.528 4.235 13.763 7.412c9.528 7.412 17.998 15.882 25.41 25.41h2.119c1.058 1.058 5.293 4.235 11.647 7.412 6.354 4.235 15.882 5.293 27.529 5.293 7.412 0 15.882-2.119 24.352-5.293s16.94-7.412 24.352-12.705c22.233-13.763 68.818-45.527 139.755-93.17l2.119-2.119c6.354-5.293 12.705-14.824 17.998-29.645 5.293-13.763 2.119-30.703-7.412-50.82-5.293-10.589-13.763-23.294-24.352-38.115s-23.294-28.587-38.115-41.292c-13.763-12.705-29.645-24.352-45.527-32.822-15.882-9.528-32.822-13.763-49.762-13.763-22.233 4.235-47.643 10.589-78.349 23.294zM284.368 818.952c-15.882-3.177-29.645-8.47-41.292-16.94l-6.354-5.293c-6.354-4.235-13.763-8.47-21.175-14.824s-14.824-13.763-21.175-22.233c-6.354-7.412-11.647-16.94-16.94-27.529-4.235-10.589-6.354-22.233-6.354-37.057 0-22.233 4.235-46.585 13.763-75.172 9.528-27.529 22.233-58.232 39.173-92.112s38.115-70.937 64.583-111.171c25.41-40.234 56.113-84.7 91.054-132.346 39.173-50.82 78.349-94.231 117.522-131.285s76.23-66.702 111.171-89.996c34.938-23.294 66.702-40.234 94.231-51.878 27.529-10.589 49.762-16.94 64.583-16.94 11.647 0 24.352 4.235 38.115 11.647s26.468 16.94 38.115 27.529c11.647 11.647 22.233 23.294 30.703 35.999 9.528 12.705 15.882 23.294 21.175 33.88 5.293 11.647 6.354 21.175 4.235 27.529s-4.235 10.589-6.354 11.647c-5.293 4.235-24.352 16.94-58.232 40.234-33.88 22.233-60.348 40.234-79.407 52.939-5.293 4.235-10.589 6.354-15.882 8.47s-10.589 3.177-15.882 3.177c-5.293 0-9.528-1.058-11.647-2.119s-4.235-2.119-5.293-4.235c-1.058-1.058-4.235-4.235-8.47-8.47s-10.589-9.528-17.998-16.94c-7.412-6.354-15.882-10.589-25.41-13.763-9.528-2.119-17.998-3.177-27.529-2.119-9.528 0-17.998 2.119-28.587 5.293-9.528 4.235-17.998 9.528-26.468 17.998-6.354 6.354-19.059 21.175-39.173 44.469-19.059 23.294-41.292 48.704-64.583 76.23-22.233 28.587-43.408 56.113-64.583 82.584s-37.057 46.585-47.643 61.409c-6.354 9.528-10.589 17.998-13.763 28.587-2.119 9.528-3.177 20.117-2.119 29.645 1.058 7.412 4.235 15.882 8.47 23.294s9.528 13.763 14.824 19.059c5.293 6.354 10.589 11.647 16.94 15.882s11.647 7.412 16.94 11.647l4.235 2.119c7.412 6.354 11.647 13.763 11.647 22.233s-1.058 13.763-2.119 16.94c-2.119 6.354-13.763 30.703-32.822 74.114-19.059 42.35-30.703 67.76-34.938 76.23-2.119 5.293-5.293 9.528-8.47 11.647s-8.47 4.235-14.824 4.235c-8.47 1.058-20.117-1.058-35.999-4.235z" />
<glyph unicode="&#xe90c;" glyph-name="user" d="M889.85 174.232c-48.71 19.75-164.57 60.56-235.66 81.625-6.585 1.315-6.585 2.635-6.585 27.645 0 21.065 9.215 42.13 17.115 59.245 9.215 19.75 19.75 51.345 23.7 80.31 10.53 11.85 25.015 36.865 35.545 84.26 7.9 40.815 3.95 56.61-1.315 71.095 0 1.315-1.315 2.635-1.315 3.95-2.635 9.215 1.315 60.56 7.9 98.74 5.265 26.33-1.315 84.26-38.18 131.655-23.7 30.28-68.46 67.145-150.085 71.095h-44.765c-80.31-5.265-125.070-42.13-148.77-71.095-36.865-47.395-43.445-104.005-38.18-131.655 6.585-39.495 10.53-89.525 7.9-98.74 0-1.315-1.315-2.635-1.315-5.265-5.265-14.48-9.215-28.965-1.315-71.095 9.215-47.395 23.7-71.095 35.545-84.26 3.95-28.965 14.48-61.88 23.7-80.31 6.585-14.48 9.215-32.915 9.215-60.56 0-25.015-1.315-25.015-6.585-27.645-73.725-21.065-190.9-64.51-234.345-82.94-34.23-14.48-43.445-40.815-43.445-65.825s0-94.79 0-110.59c0-15.8 9.215-42.13 43.445-42.13 26.33 0 233.030 0 327.82 0 27.645 0 46.080 0 46.080 0h7.9c0 0 18.43 0 47.395 0 94.79 0 301.49 0 327.82 0 34.23 0 43.445 26.33 43.445 42.13s0 86.89 0 110.59-18.43 55.295-52.66 69.775v0zM896.43-2.188h-753.065v109.275c0 13.165 3.95 19.75 15.8 25.015 42.13 18.43 157.985 60.56 229.080 81.625 38.18 11.85 38.18 44.765 38.18 69.775 0 34.23-3.95 59.245-14.48 78.995-7.9 15.8-17.115 43.445-19.75 67.145l-1.315 13.165-7.9 9.215c-5.265 5.265-17.115 22.38-25.015 64.51-6.585 31.595-3.95 39.495-1.315 46.080 1.315 2.635 2.635 6.585 3.95 10.53v2.635c3.95 21.065-1.315 82.94-7.9 115.855-2.635 15.8 1.315 59.245 28.965 96.11 17.115 22.38 51.345 50.030 114.54 53.98h42.13c51.345-3.95 90.84-22.38 115.855-55.295 28.965-36.865 32.915-80.31 28.965-96.11-6.585-34.23-11.85-94.79-7.9-115.855v-2.635c0-2.635 1.315-3.95 2.635-6.585v-1.315c2.635-6.585 5.265-13.165-1.315-46.080-7.9-40.815-19.75-57.93-25.015-64.51l-9.215-10.53-1.315-13.165c-2.635-25.015-13.165-52.66-19.75-67.145-10.53-22.38-21.065-48.71-21.065-78.995 0-25.015 0-57.93 38.18-69.775 69.775-21.065 183-59.245 230.395-78.995 17.115-7.9 23.7-21.065 23.7-27.645l3.95-109.275z" />
<glyph unicode="&#xe90d;" glyph-name="play" d="M512 960c-282.77 0-512-229.23-512-512s229.23-512 512-512 512 229.23 512 512-229.23 512-512 512zM512 32c-229.75 0-416 186.25-416 416s186.25 416 416 416 416-186.25 416-416-186.25-416-416-416zM384 672l384-224-384-224z" />
<glyph unicode="&#xe90e;" glyph-name="share" d="M768 284.57c-32.41 0-61.645-12.595-83.814-32.87l-304.026 177.306c2.355 9.626 3.84 19.661 3.84 29.901s-1.485 20.224-3.84 29.85l300.8 175.565c22.835-21.35 53.35-34.56 87.040-34.56 70.605 0 128 57.395 128 128s-57.395 128-128 128-128-57.395-128-128c0-10.24 1.485-20.275 3.84-29.85l-300.8-175.565c-22.835 21.299-53.35 34.56-87.040 34.56-70.605 0-128-57.395-128-128s57.395-128 128-128c33.69 0 64.205 13.21 87.040 34.56l304.026-177.306c-2.15-8.96-3.43-18.33-3.43-27.955 0-68.71 55.654-124.365 124.365-124.365s124.365 55.706 124.365 124.365-55.654 124.365-124.365 124.365z" />
<glyph unicode="&#xe90f;" glyph-name="minus" d="M128 469.334h768q17.667 0 30.167-12.5t12.5-30.167-12.5-30.167-30.167-12.5h-768q-17.667 0-30.167 12.5t-12.5 30.167 12.5 30.167 30.167 12.5z" />
<glyph unicode="&#xe910;" glyph-name="pinterest" d="M441.19 295.578c-26.931-141.005-59.75-276.173-157.082-346.778-30.003 213.094 44.083 373.094 78.541 542.976-58.726 98.816 7.066 297.574 130.816 248.576 152.32-60.211-131.891-367.206 58.88-405.606 199.219-39.987 280.525 345.6 156.979 470.989-178.432 181.146-519.475 4.25-477.491-255.078 10.189-63.386 75.674-82.586 26.163-170.086-114.227 25.293-148.326 115.405-143.923 235.52 7.066 196.608 176.589 334.182 346.675 353.28 215.091 24.115 416.973-79.002 444.877-281.293 31.386-228.403-97.075-475.802-327.117-457.984-62.362 4.864-88.474 35.789-137.318 65.485z" />
<glyph unicode="&#xe912;" glyph-name="chat-filled" d="M1015.635 833.163c-4.779 9.559-10.754 19.118-17.923 27.482-8.364 8.364-17.923 14.338-27.482 19.118-9.559 3.585-20.313 5.974-32.261 5.974h-853.134c-11.949 0-22.702-2.39-32.261-5.974-9.559-4.779-19.118-10.754-27.482-19.118-7.169-8.364-11.949-17.923-17.923-27.482-4.779-9.559-7.169-20.313-7.169-32.261v-554.418c0-11.949 2.39-22.702 7.169-33.456s10.754-19.118 17.923-26.287c8.364-8.364 17.923-14.338 27.482-19.118s20.313-5.974 32.261-5.974h598.628l167.281-169.671v169.671h87.225c11.949 0 22.702 2.39 32.261 5.974s19.118 10.754 27.482 19.118c7.169 7.169 11.949 15.533 17.923 26.287 4.779 10.754 7.169 21.508 7.169 33.456v554.418c1.195 11.949-1.195 22.702-7.169 32.261z" />
<glyph unicode="&#xe913;" glyph-name="close" d="M1024-34.235l-473.976 473.976v1.769l468.67 470.439-37.14 37.14-470.439-468.67-468.67 468.67-37.14-37.14 468.67-470.439v-1.769l-473.976-473.976 37.14-37.14 473.976 473.976 473.976-473.976z" />
<glyph unicode="&#xe914;" glyph-name="plus" d="M512 853.334q17.667 0 30.167-12.5t12.5-30.167v-341.333h341.333q17.667 0 30.167-12.5t12.5-30.167-12.5-30.167-30.167-12.5h-341.333v-341.333q0-17.667-12.5-30.167t-30.167-12.5-30.167 12.5-12.5 30.167v341.333h-341.333q-17.667 0-30.167 12.5t-12.5 30.167 12.5 30.167 30.167 12.5h341.333v341.333q0 17.667 12.5 30.167t30.167 12.5z" />
<glyph unicode="&#xe915;" glyph-name="chevron-with-circle-left" d="M578.662 625.869c-10.035 10.086-26.368 10.086-36.352 0l-143.718-146.688c-10.035-10.189-10.035-26.624 0-36.71l143.718-146.637c9.984-10.189 26.317-10.138 36.352 0 10.035 10.086 10.035 26.522 0 36.71l-117.862 128.256 117.862 128.307c10.035 10.138 10.035 26.522 0 36.762zM512 952.32c-271.462 0-491.52-220.058-491.52-491.52 0-271.514 220.058-491.52 491.52-491.52s491.52 220.006 491.52 491.52c0 271.462-220.058 491.52-491.52 491.52zM512 33.075c-236.288 0-427.725 191.488-427.725 427.725s191.437 427.725 427.725 427.725c236.186 0 427.725-191.488 427.725-427.725s-191.539-427.725-427.725-427.725z" />
<glyph unicode="&#xe916;" glyph-name="chevron-with-circle-right" d="M563.2 460.8l-117.862 128.307c-10.035 10.138-10.035 26.573 0 36.762 10.035 10.086 26.368 10.086 36.352 0l143.718-146.637c10.035-10.189 10.035-26.624 0-36.71l-143.718-146.637c-9.984-10.189-26.317-10.138-36.352 0-10.035 10.086-10.035 26.522 0 36.71l117.862 128.205zM512 952.32c271.462 0 491.52-220.058 491.52-491.52 0-271.514-220.058-491.52-491.52-491.52s-491.52 220.006-491.52 491.52c0 271.462 220.058 491.52 491.52 491.52zM512 33.075c236.186 0 427.725 191.488 427.725 427.725s-191.539 427.725-427.725 427.725c-236.288 0-427.725-191.488-427.725-427.725-0.051-236.237 191.437-427.725 427.725-427.725z" />
<glyph unicode="&#xe917;" glyph-name="checkmark" d="M864 832l-480-480-224 224-160-160 384-384 640 640z" />
<glyph unicode="&#xe918;" glyph-name="info" d="M510.4 908.457c64.8 0 125.6-12 183.2-36s107.2-57.6 149.6-100c42.4-42.4 76-92.8 100-149.6 24-57.6 36-118.4 36-183.2s-12-125.6-36-183.2c-24-57.6-57.6-107.2-100-149.6s-92.8-76-149.6-100c-57.6-24-118.4-36-183.2-36s-125.6 12-183.2 36c-57.6 24-107.2 57.6-149.6 100s-76 92.8-100 149.6c-24 57.6-36 118.4-36 183.2s12 125.6 36 183.2 57.6 107.2 100 149.6c42.4 42.4 92.8 76 149.6 100s118.4 36 183.2 36zM510.4 6.857c60 0 116.8 11.2 168.8 34.4 52 22.4 98.4 53.6 137.6 91.2 38.4 40 68.8 85.6 91.2 137.6s34.4 108 34.4 168.8c0 60-11.2 116-34.4 168.8-22.4 52-53.6 98.4-91.2 137.6-40 38.4-85.6 68.8-137.6 91.2-52 23.2-108.8 34.4-168.8 34.4s-116.8-11.2-168.8-34.4c-52-22.4-98.4-53.6-137.6-91.2-38.4-40-68.8-85.6-91.2-137.6-22.4-52.8-34.4-108.8-34.4-168.8s11.2-116.8 34.4-168.8c22.4-52 53.6-98.4 91.2-137.6 40-38.4 85.6-68.8 137.6-91.2 52.8-23.2 108.8-34.4 168.8-34.4zM550.4 214.057h40v-37.6h-152v37.6h37.6v319.2h-37.6v37.6h112v-356.8zM512.8 610.857c-7.2 0-14.4 1.6-22.4 4.8-7.2 3.2-13.6 6.4-17.6 11.2-5.6 4.8-10.4 10.4-13.6 17.6s-4.8 14.4-4.8 22.4c0 7.2 1.6 14.4 4.8 22.4 3.2 7.2 7.2 13.6 13.6 17.6 4.8 5.6 10.4 10.4 17.6 13.6s14.4 4.8 22.4 4.8c7.2 0 14.4-1.6 22.4-4.8 7.2-3.2 13.6-7.2 17.6-13.6 5.6-4.8 10.4-10.4 13.6-17.6s4.8-14.4 4.8-22.4c0-7.2-1.6-14.4-4.8-22.4-3.2-7.2-7.2-13.6-13.6-17.6-4.8-4.8-10.4-8-17.6-11.2-8-3.2-15.2-4.8-22.4-4.8z" />
<glyph unicode="&#xe919;" glyph-name="hamburger" horiz-adv-x="1445" d="M0 967.111h1444.647v-84.979h-1444.647v84.979zM0 498.026h1444.647v-84.979h-1444.647v84.979zM0 28.090h1444.647v-84.979h-1444.647v84.979z" />
<glyph unicode="&#xe91a;" glyph-name="navigation" horiz-adv-x="661" d="M331.606-56.889l-308.394 572.352c-3.631 8.594-7.475 19.617-10.717 30.895l-0.557 2.266c-8.418 27.806-13.264 59.762-13.264 92.85 0 183.141 148.465 331.606 331.606 331.606s331.606-148.465 331.606-331.606c0-33.088-4.846-65.044-13.867-95.197l0.603 2.347c-3.997-14.029-8.064-25.487-12.734-36.63l0.797 2.142-8.622-19.233zM104.788 548.624l8.622-19.233 216.87-397.927 225.492 419.15c0 6.632 5.306 15.254 7.959 23.876 5.463 19.178 8.604 41.205 8.604 63.965 0 133.693-108.38 242.073-242.073 242.073s-242.073-108.38-242.073-242.073c0-1.037 0.007-2.072 0.020-3.106l-0.002 0.157c-0.006-0.618-0.009-1.349-0.009-2.080 0-22.858 3.151-44.979 9.042-65.954l-0.411 1.713c2.861-8.588 5.555-15.39 8.551-22.026l-0.592 1.467zM331.606 471.691c-76.919 0-139.275 62.355-139.275 139.275s62.355 139.275 139.275 139.275c76.919 0 139.275-62.355 139.275-139.275v0c0-76.919-62.355-139.275-139.275-139.275v0zM331.606 662.033c-28.204 0-51.067-22.864-51.067-51.067s22.864-51.067 51.067-51.067c28.204 0 51.067 22.864 51.067 51.067v0c0 28.204-22.864 51.067-51.067 51.067v0z" />
<glyph unicode="&#xe91b;" glyph-name="compare" d="M713.731 647.371v0c9.092 0 20.836 0 24.624 0h3.788v319.361h-742.144v-742.144h319.74c-0.233 2.892-0.366 6.261-0.366 9.66s0.133 6.769 0.394 10.101l-0.028-0.441c0 6.061 0 12.502 0 18.563h-281.856v666.755h666.377v-281.856zM281.477 685.255v-742.144h742.144v742.144zM985.737-19.005h-666.377v243.593c-0.162 2.604-0.255 5.648-0.255 8.713s0.092 6.109 0.275 9.129l-0.020-0.415v405.357h416.722c2.042 0.18 4.419 0.282 6.819 0.282s4.777-0.102 7.125-0.303l-0.306 0.021h234.88z" />
<glyph unicode="&#xe91c;" glyph-name="camera" horiz-adv-x="1265" d="M632.603 112.485c-148.091 0-268.142 120.051-268.142 268.142s120.051 268.142 268.142 268.142c148.091 0 268.142-120.051 268.142-268.142v0c-0.232-147.997-120.145-267.91-268.12-268.142h-0.022zM632.603 608.364c-125.55 0-227.329-101.779-227.329-227.329s101.779-227.329 227.329-227.329c125.55 0 227.329 101.779 227.329 227.329v0c-0.232 125.457-101.872 227.097-227.307 227.329h-0.022zM1092.566 566.735c0-34.261-27.774-62.036-62.036-62.036s-62.036 27.774-62.036 62.036c0 34.261 27.774 62.036 62.036 62.036s62.036-27.774 62.036-62.036zM1265.205-56.889h-1265.205v875.44h1265.205zM40.813-16.076h1183.579v793.814h-1183.579zM396.703 967.111h489.757v-40.813h-489.757v40.813z" />
<glyph unicode="&#xe91e;" glyph-name="question" horiz-adv-x="971" d="M418.416 627.464c23.813 14.555 52.63 23.174 83.459 23.174 1.4 0 2.796-0.018 4.187-0.053l-0.206 0.004c2.134 0.085 4.64 0.133 7.156 0.133 40.5 0 78.086-12.478 109.123-33.8l-0.654 0.425c28.318-21.024 46.469-54.36 46.469-91.936 0-2.487-0.079-4.954-0.236-7.401l0.017 0.334c0.139-2.090 0.218-4.532 0.218-6.992 0-22.352-6.547-43.175-17.829-60.656l0.266 0.441c-13.042-16.199-27.777-30.246-44.149-42.181l-0.655-0.455-22.402-19.512c-10.997-8.023-19.308-19.135-23.711-32.056l-0.137-0.463c-2.763-10.261-4.35-22.042-4.35-34.194 0-0.682 0.005-1.362 0.015-2.041l-0.001 0.103h-83.105c-0.010 0.817-0.016 1.782-0.016 2.748 0 24.787 3.703 48.708 10.586 71.242l-0.453-1.725c10.070 18.558 23.976 33.852 40.747 45.243l0.444 0.284 21.68 23.125c7.035 5.055 13.011 11.032 17.909 17.837l0.157 0.23c8.118 9.146 13.598 20.802 15.147 33.668l0.029 0.297c0 0.076 0 0.167 0 0.257 0 15.922-5.149 30.642-13.873 42.584l0.143-0.205c-10.655 12.193-26.235 19.852-43.603 19.852-2.205 0-4.382-0.123-6.523-0.364l0.263 0.024c-1.54 0.153-3.328 0.241-5.136 0.241-18.822 0-35.432-9.468-45.329-23.901l-0.121-0.187c-9.257-13.844-14.882-30.807-15.175-49.065l-0.001-0.075h-91.777c-0.098 1.989-0.154 4.319-0.154 6.663 0 48.758 24.144 91.877 61.128 118.053l0.451 0.303zM469.725 280.59h91.777v-88.886h-91.777zM511.639-56.889c-282.57 0-511.639 229.068-511.639 511.639s229.068 511.639 511.639 511.639c282.57 0 511.639-229.068 511.639-511.639v0c-0.411-282.405-229.234-511.228-511.6-511.639h-0.039zM511.639 870.275c-229.489 0-415.526-186.037-415.526-415.526s186.037-415.526 415.526-415.526c229.489 0 415.526 186.037 415.526 415.526v0c0 0 0 0 0 0.001 0 229.633-185.949 415.836-415.486 416.248h-0.040z" />
<glyph unicode="&#xe91f;" glyph-name="search" horiz-adv-x="912" d="M393.382 181.017c-217.259 0-393.382 176.123-393.382 393.382s176.123 393.382 393.382 393.382c217.259 0 393.382-176.123 393.382-393.382v0c0-217.259-176.123-393.382-393.382-393.382v0zM393.382 877.98c-167.663 0-303.58-135.918-303.58-303.581s135.918-303.581 303.581-303.581c167.428 0 303.199 135.536 303.58 302.874v0.037c0 0 0 0.001 0 0.001 0 167.798-135.836 303.869-303.545 304.251h-0.037zM606.451 254.132l71.249 53.553 233.943-311.244-71.249-53.553-233.943 311.244z" />
<glyph unicode="&#xe920;" glyph-name="color" horiz-adv-x="1608" d="M1468.173 88.068c14.728 0 28.681 49.611 38.759 66.665 15.188 22.297 28.969 47.803 40.057 74.703l1.027 2.814c1.555 5.301 2.449 11.392 2.449 17.691 0 35.962-29.153 65.114-65.114 65.114-9.29 0-18.126-1.946-26.123-5.452l0.418 0.164-117.051-50.386c9.616 11.376 15.461 26.209 15.461 42.408 0 36.39-29.5 65.889-65.889 65.889-2.991 0-5.936-0.199-8.822-0.586l0.337 0.037-454.25-88.369c244.179 126.353 493.008 244.179 741.838 361.229 77.517 36.433 20.93 143.407-55.812 116.276l-836.409-290.689q363.555 199.219 737.962 377.508c21.818 10.648 36.582 32.669 36.582 58.138 0 35.616-28.872 64.488-64.488 64.488-10.147 0-19.747-2.344-28.287-6.519l0.381 0.168c-533.44-254.271-967.972-493.38-1388.165-753.45l61.848 35.642c-21.818-10.648-36.582-32.669-36.582-58.138 0-35.616 28.872-64.488 64.488-64.488 10.147 0 19.747 2.344 28.287 6.519l-0.381-0.168 506.186 175.964c-68.215-37.208-135.655-77.517-203.095-113.95s-35.658-137.205 39.534-121.702l574.401 117.826-182.165-128.678c-63.564-44.96 5.426-131.004 69.765-107.749q232.551 86.044 459.676 182.165c-2.274-9.432-3.578-20.261-3.578-31.394s1.304-21.962 3.768-32.342l-0.19 0.948c8.696-61.183 60.728-107.714 123.627-107.714 4.783 0 9.504 0.269 14.147 0.793l-0.569-0.052c82.168 6.977 58.138 133.329-24.030 128.678z" />
<glyph unicode="&#xe921;" glyph-name="magnify" horiz-adv-x="918" d="M375.277 215.845c-207.26 0-375.277 168.017-375.277 375.277s168.017 375.277 375.277 375.277c207.26 0 375.277-168.017 375.277-375.277v0c-0.404-207.097-168.18-374.872-375.238-375.277h-0.039zM375.277 895.901c-167.625-0.405-303.355-136.385-303.355-304.066 0-167.931 136.135-304.067 304.067-304.067s304.066 136.135 304.067 304.066v0c-0.405 168.018-136.704 304.067-304.778 304.067 0 0-0.001 0-0.001 0v0zM590.544 283.257l55.691 44.378 271.593-340.828-55.691-44.378-271.593 340.828zM339.672 790.51h71.21v-398.776h-71.21v398.776zM176.601 627.439h398.776v-71.21h-398.776v71.21z" />
<glyph unicode="&#xe922;" glyph-name="person" d="M805.373 177.101h-586.747v72.088c0 153.039 170.765 236.353 295.441 236.353s295.441-81.542 295.441-236.353zM295.441 258.052h431.344c-5.318 92.769-127.040 149.493-214.49 149.493s-209.763-59.088-216.854-149.493zM512.295 440.043c-104.427 0-189.083 84.655-189.083 189.083s84.655 189.083 189.083 189.083c104.427 0 189.083-84.655 189.083-189.083v0c0-104.427-84.655-189.083-189.083-189.083v0zM512.295 739.030c-60.698 0-109.904-49.206-109.904-109.904s49.206-109.904 109.904-109.904c60.698 0 109.904 49.206 109.904 109.904v0c-0.333 60.564-49.34 109.571-109.872 109.904h-0.032zM1024-56.889h-1024v1024h1024zM78.587 21.698h866.825v866.825h-866.825z" />
<glyph unicode="&#xe97b;" glyph-name="spinner" d="M1024 448c-1.278 66.862-15.784 133.516-42.576 194.462-26.704 61-65.462 116.258-113.042 161.92-47.552 45.696-103.944 81.82-164.984 105.652-61.004 23.924-126.596 35.352-191.398 33.966-64.81-1.282-129.332-15.374-188.334-41.356-59.048-25.896-112.542-63.47-156.734-109.576-44.224-46.082-79.16-100.708-102.186-159.798-23.114-59.062-34.128-122.52-32.746-185.27 1.286-62.76 14.964-125.148 40.134-182.206 25.088-57.1 61.476-108.828 106.11-151.548 44.61-42.754 97.472-76.504 154.614-98.72 57.118-22.304 118.446-32.902 179.142-31.526 60.708 1.29 120.962 14.554 176.076 38.914 55.15 24.282 105.116 59.48 146.366 102.644 41.282 43.14 73.844 94.236 95.254 149.43 13.034 33.458 21.88 68.4 26.542 103.798 1.246-0.072 2.498-0.12 3.762-0.12 35.346 0 64 28.652 64 64 0 1.796-0.094 3.572-0.238 5.332h0.238zM922.306 278.052c-23.472-53.202-57.484-101.4-99.178-141.18-41.67-39.81-91-71.186-144.244-91.79-53.228-20.678-110.29-30.452-166.884-29.082-56.604 1.298-112.596 13.736-163.82 36.474-51.25 22.666-97.684 55.49-135.994 95.712-38.338 40.198-68.528 87.764-88.322 139.058-19.87 51.284-29.228 106.214-27.864 160.756 1.302 54.552 13.328 108.412 35.254 157.69 21.858 49.3 53.498 93.97 92.246 130.81 38.73 36.868 84.53 65.87 133.874 84.856 49.338 19.060 102.136 28.006 154.626 26.644 52.5-1.306 104.228-12.918 151.562-34.034 47.352-21.050 90.256-51.502 125.624-88.782 35.396-37.258 63.21-81.294 81.39-128.688 18.248-47.392 26.782-98.058 25.424-148.496h0.238c-0.144-1.76-0.238-3.536-0.238-5.332 0-33.012 24.992-60.174 57.086-63.624-6.224-34.822-16.53-68.818-30.78-100.992z" />
<glyph unicode="&#xea0f;" glyph-name="cross" d="M1014.662 137.34c-0.004 0.004-0.008 0.008-0.012 0.010l-310.644 310.65 310.644 310.65c0.004 0.004 0.008 0.006 0.012 0.010 3.344 3.346 5.762 7.254 7.312 11.416 4.246 11.376 1.824 24.682-7.324 33.83l-146.746 146.746c-9.148 9.146-22.45 11.566-33.828 7.32-4.16-1.55-8.070-3.968-11.418-7.31 0-0.004-0.004-0.006-0.008-0.010l-310.648-310.652-310.648 310.65c-0.004 0.004-0.006 0.006-0.010 0.010-3.346 3.342-7.254 5.76-11.414 7.31-11.38 4.248-24.682 1.826-33.83-7.32l-146.748-146.748c-9.148-9.148-11.568-22.452-7.322-33.828 1.552-4.16 3.97-8.072 7.312-11.416 0.004-0.002 0.006-0.006 0.010-0.010l310.65-310.648-310.65-310.652c-0.002-0.004-0.006-0.006-0.008-0.010-3.342-3.346-5.76-7.254-7.314-11.414-4.248-11.376-1.826-24.682 7.322-33.83l146.748-146.746c9.15-9.148 22.452-11.568 33.83-7.322 4.16 1.552 8.070 3.97 11.416 7.312 0.002 0.004 0.006 0.006 0.010 0.010l310.648 310.65 310.648-310.65c0.004-0.002 0.008-0.006 0.012-0.008 3.348-3.344 7.254-5.762 11.414-7.314 11.378-4.246 24.684-1.826 33.828 7.322l146.746 146.748c9.148 9.148 11.57 22.454 7.324 33.83-1.552 4.16-3.97 8.068-7.314 11.414z" />
<glyph unicode="&#xf099;" glyph-name="twitter" horiz-adv-x="951" d="M925.714 717.714c-25.143-36.571-56.571-69.143-92.571-95.429 0.571-8 0.571-16 0.571-24 0-244-185.714-525.143-525.143-525.143-104.571 0-201.714 30.286-283.429 82.857 14.857-1.714 29.143-2.286 44.571-2.286 86.286 0 165.714 29.143 229.143 78.857-81.143 1.714-149.143 54.857-172.571 128 11.429-1.714 22.857-2.857 34.857-2.857 16.571 0 33.143 2.286 48.571 6.286-84.571 17.143-148 91.429-148 181.143v2.286c24.571-13.714 53.143-22.286 83.429-23.429-49.714 33.143-82.286 89.714-82.286 153.714 0 34.286 9.143 65.714 25.143 93.143 90.857-112 227.429-185.143 380.571-193.143-2.857 13.714-4.571 28-4.571 42.286 0 101.714 82.286 184.571 184.571 184.571 53.143 0 101.143-22.286 134.857-58.286 41.714 8 81.714 23.429 117.143 44.571-13.714-42.857-42.857-78.857-81.143-101.714 37.143 4 73.143 14.286 106.286 28.571z" />
<glyph unicode="&#xf09a;" glyph-name="facebook" horiz-adv-x="602" d="M548 944v-150.857h-89.714c-70.286 0-83.429-33.714-83.429-82.286v-108h167.429l-22.286-169.143h-145.143v-433.714h-174.857v433.714h-145.714v169.143h145.714v124.571c0 144.571 88.571 223.429 217.714 223.429 61.714 0 114.857-4.571 130.286-6.857z" />
<glyph unicode="&#xf0d5;" glyph-name="google-plus" horiz-adv-x="1317" d="M821.143 429.143c0-239.429-160.571-409.143-402.286-409.143-231.429 0-418.857 187.429-418.857 418.857s187.429 418.857 418.857 418.857c113.143 0 207.429-41.143 280.571-109.714l-113.714-109.143c-30.857 29.714-85.143 64.571-166.857 64.571-142.857 0-259.429-118.286-259.429-264.571s116.571-264.571 259.429-264.571c165.714 0 228 119.429 237.714 180.571h-237.714v144h395.429c4-21.143 6.857-42.286 6.857-69.714zM1316.571 498.857v-120h-119.429v-119.429h-120v119.429h-119.429v120h119.429v119.429h120v-119.429h119.429z" />
<glyph unicode="&#xf0d7;" glyph-name="caret-down" horiz-adv-x="585" d="M585.143 548.571c0-9.714-4-18.857-10.857-25.714l-256-256c-6.857-6.857-16-10.857-25.714-10.857s-18.857 4-25.714 10.857l-256 256c-6.857 6.857-10.857 16-10.857 25.714 0 20 16.571 36.571 36.571 36.571h512c20 0 36.571-16.571 36.571-36.571z" />
<glyph unicode="&#xf0d8;" glyph-name="caret-up" horiz-adv-x="585" d="M585.143 256c0-20-16.571-36.571-36.571-36.571h-512c-20 0-36.571 16.571-36.571 36.571 0 9.714 4 18.857 10.857 25.714l256 256c6.857 6.857 16 10.857 25.714 10.857s18.857-4 25.714-10.857l256-256c6.857-6.857 10.857-16 10.857-25.714z" />
<glyph unicode="&#xf0d9;" glyph-name="caret-left" horiz-adv-x="402" d="M365.714 694.857v-512c0-20-16.571-36.571-36.571-36.571-9.714 0-18.857 4-25.714 10.857l-256 256c-6.857 6.857-10.857 16-10.857 25.714s4 18.857 10.857 25.714l256 256c6.857 6.857 16 10.857 25.714 10.857 20 0 36.571-16.571 36.571-36.571z" />
<glyph unicode="&#xf0da;" glyph-name="caret-right" horiz-adv-x="329" d="M329.143 438.857c0-9.714-4-18.857-10.857-25.714l-256-256c-6.857-6.857-16-10.857-25.714-10.857-20 0-36.571 16.571-36.571 36.571v512c0 20 16.571 36.571 36.571 36.571 9.714 0 18.857-4 25.714-10.857l256-256c6.857-6.857 10.857-16 10.857-25.714z" />
<glyph unicode="&#xf167;" glyph-name="youtube" horiz-adv-x="878" d="M554.857 240v-120.571c0-25.714-7.429-38.286-22.286-38.286-8.571 0-17.143 4-25.714 12.571v172c8.571 8.571 17.143 12.571 25.714 12.571 14.857 0 22.286-13.143 22.286-38.286zM748 239.428v-26.286h-51.429v26.286c0 25.714 8.571 38.857 25.714 38.857s25.714-13.143 25.714-38.857zM196 364h61.143v53.714h-178.286v-53.714h60v-325.143h57.143v325.143zM360.571 38.857h50.857v282.286h-50.857v-216c-11.429-16-22.286-24-32.571-24-6.857 0-10.857 4-12 12-0.571 1.714-0.571 8-0.571 20v208h-50.857v-223.429c0-20 1.714-33.143 4.571-41.714 4.571-14.286 16.571-21.143 33.143-21.143 18.286 0 37.714 11.429 58.286 34.857v-30.857zM605.714 123.428v112.571c0 26.286-1.143 45.143-5.143 56.571-6.286 21.143-20.571 32-40.571 32-18.857 0-36.571-10.286-53.143-30.857v124h-50.857v-378.857h50.857v27.429c17.143-21.143 34.857-31.429 53.143-31.429 20 0 34.286 10.857 40.571 31.429 4 12 5.143 30.857 5.143 57.143zM798.857 129.143v7.429h-52c0-20.571-0.571-32-1.143-34.857-2.857-13.714-10.286-20.571-22.857-20.571-17.714 0-26.286 13.143-26.286 39.429v49.714h102.286v58.857c0 30.286-5.143 52-15.429 66.286-14.857 19.429-34.857 29.143-60.571 29.143-26.286 0-46.286-9.714-61.143-29.143-10.857-14.286-16-36-16-66.286v-98.857c0-30.286 5.714-52.571 16.571-66.286 14.857-19.429 34.857-29.143 61.714-29.143s48 10.286 61.714 30.286c6.286 9.143 10.857 19.429 12 30.857 1.143 5.143 1.143 16.571 1.143 33.143zM451.429 650.857v120c0 26.286-7.429 39.429-24.571 39.429-16.571 0-24.571-13.143-24.571-39.429v-120c0-26.286 8-40 24.571-40 17.143 0 24.571 13.714 24.571 40zM862.286 221.714c0-65.714-0.571-136-14.857-200-10.857-45.143-47.429-78.286-91.429-82.857-105.143-12-211.429-12-317.143-12s-212 0-317.143 12c-44 4.571-81.143 37.714-91.429 82.857-14.857 64-14.857 134.286-14.857 200v0c0 66.286 0.571 136 14.857 200 10.857 45.143 47.429 78.286 92 83.429 104.571 11.429 210.857 11.429 316.571 11.429s212 0 317.143-11.429c44-5.143 81.143-38.286 91.429-83.429 14.857-64 14.857-133.714 14.857-200zM292 950.857h58.286l-69.143-228v-154.857h-57.143v154.857c-5.143 28-16.571 68-34.857 121.143-12.571 35.429-25.143 71.429-37.143 106.857h60.571l40.571-150.286zM503.429 760.571v-100c0-30.286-5.143-53.143-16-67.429-14.286-19.429-34.286-29.143-60.571-29.143-25.714 0-45.714 9.714-60 29.143-10.857 14.857-16 37.143-16 67.429v100c0 30.286 5.143 52.571 16 66.857 14.286 19.429 34.286 29.143 60 29.143 26.286 0 46.286-9.714 60.571-29.143 10.857-14.286 16-36.571 16-66.857zM694.857 853.143v-285.143h-52v31.429c-20.571-24-40-35.429-58.857-35.429-16.571 0-28.571 6.857-33.714 21.143-2.857 8.571-4.571 22.286-4.571 42.857v225.143h52v-209.714c0-12 0-18.857 0.571-20 1.143-8 5.143-12.571 12-12.571 10.286 0 21.143 8 32.571 24.571v217.714h52z" />
<glyph unicode="&#xf16d;" glyph-name="instagram" horiz-adv-x="878" d="M585.143 438.857c0 80.571-65.714 146.286-146.286 146.286s-146.286-65.714-146.286-146.286 65.714-146.286 146.286-146.286 146.286 65.714 146.286 146.286zM664 438.857c0-124.571-100.571-225.143-225.143-225.143s-225.143 100.571-225.143 225.143 100.571 225.143 225.143 225.143 225.143-100.571 225.143-225.143zM725.714 673.143c0-29.143-23.429-52.571-52.571-52.571s-52.571 23.429-52.571 52.571 23.429 52.571 52.571 52.571 52.571-23.429 52.571-52.571zM438.857 798.857c-64 0-201.143 5.143-258.857-17.714-20-8-34.857-17.714-50.286-33.143s-25.143-30.286-33.143-50.286c-22.857-57.714-17.714-194.857-17.714-258.857s-5.143-201.143 17.714-258.857c8-20 17.714-34.857 33.143-50.286s30.286-25.143 50.286-33.143c57.714-22.857 194.857-17.714 258.857-17.714s201.143-5.143 258.857 17.714c20 8 34.857 17.714 50.286 33.143s25.143 30.286 33.143 50.286c22.857 57.714 17.714 194.857 17.714 258.857s5.143 201.143-17.714 258.857c-8 20-17.714 34.857-33.143 50.286s-30.286 25.143-50.286 33.143c-57.714 22.857-194.857 17.714-258.857 17.714zM877.714 438.857c0-60.571 0.571-120.571-2.857-181.143-3.429-70.286-19.429-132.571-70.857-184s-113.714-67.429-184-70.857c-60.571-3.429-120.571-2.857-181.143-2.857s-120.571-0.571-181.143 2.857c-70.286 3.429-132.571 19.429-184 70.857s-67.429 113.714-70.857 184c-3.429 60.571-2.857 120.571-2.857 181.143s-0.571 120.571 2.857 181.143c3.429 70.286 19.429 132.571 70.857 184s113.714 67.429 184 70.857c60.571 3.429 120.571 2.857 181.143 2.857s120.571 0.571 181.143-2.857c70.286-3.429 132.571-19.429 184-70.857s67.429-113.714 70.857-184c3.429-60.571 2.857-120.571 2.857-181.143z" />
</font>
</defs>
</svg>
